[Login] or [Signup]
Login
Username:
Password:
[Signup]
[Recover Account]


Poll


You must be logged in to view polls



Torrent Details For "Race 3-Official Trailer 2018 Ft.Salman & Jacqueline Full HD 1080p[HDFilmBoss]"

Race 3-Official Trailer 2018 Ft.Salman & Jacqueline Full HD 1080p[HDFilmBoss]

Download this torrent | Magnet Download
Health:
Seeds: 0
Leechers: 0
Completed:
Last Checked: 15-05-2018 14:21:57
External Torrent
Update Stats
Download Magnet


Poster


iMDB
Imdb Picture Title: Race 3
Year: 2018
Language: Hindi
All Genres: Action, Thriller
Plot Outline: The story of a landowner who gets sabotaged by a criminal.


Tagline: You Don't Need Enemies When You Have a Family
Director: Remo
Writing By: Shiraz Ahmed,Shiraz Ahmed,Kiran Kotrial,
Produced By: Salma Khan,Salman Khan,Kulthep Narula,Rachvin Narula,Ramesh Sadhuram Taurani,
Cast:
Salman Khan as Sikander
Anil Kapoor as Shamsher
Jacqueline Fernandez as Jessica
Bobby Deol as Yash
Daisy Shah as Sanjana
Aditya Pancholi as
Anurag Arora as
Saloni Chopra as
Rajesh Khattar as
Saqib Saleem as Suraj


Watch-Free-HD     Download

Details
Name:Race 3-Official Trailer 2018 Ft.Salman & Jacqueline Full HD 1080p[HDFilmBoss]
Description:
Driced Download link> http://cloudyfiles.com/lejcsbhm3xhm
General
Complete name:Race 3-Official Trailer (2018) Ft.Salman Khan & Jacqueline Fernandez Full HD 1080p-HDFilmBoss.Com.mp4.MP4
Format profile                           : Base Media
Codec ID                                 : isom (isom/iso2/avc1/mp41)
File size                                : 77.5 MiB
Duration                                 : 3 min 9 s
Overall bit rate                         : 3 437 kb/s

Video
ID                                       : 1
Format                                   : AVC
Format settings, CABAC                   : Yes
Format settings, RefFrames               : 2 frames
Codec ID                                 : avc1
Codec ID/Info                            : Advanced Video Coding
Duration                                 : 3 min 8 s
Bit rate                                 : 3 307 kb/s
Width                                    : 1 920 pixels
Height                                   : 1 080 pixels
Display aspect ratio                     : 16:9
Color space                              : YUV
Chroma subsampling                       : 4:2:0
Bit depth                                : 8 bits
Stream size                              : 74.5 MiB (96%)
Title                                    : ISO Media file produced by Google Inc. Created on: 05/15/2018.
Encoded date                             : UTC 2018-05-15 09:23:56
Tagged date                              : UTC 2018-05-15 09:23:56

Audio
ID                                       : 2
Format                                   : AAC
Format/Info                              : Advanced Audio Codec
Format profile                           : LC
Codec ID                                 : mp4a-40-2
Duration                                 : 3 min 9 s
Bit rate                                 : 128 kb/s
Channel(s)                               : 2 channels
Sampling rate                            : 44.1 kHz
Stream size                              : 2.88 MiB (4%)
Title                                    : ISO Media file produced by Google Inc. Created on: 05/15/2018.
Language                                 : English
Default                                  : Yes
Alternate group                          : 1
[quote][/quote]





Category:Music > Videos
Lang:Hindi
Total Size:77.46 MB
Info Hash:b735636667302b16d4a8d5ae07c8c875bee5cf20
Added By:HDFilmBoss
Date Added:15-05-2018 13:44:40
Views:283
Hits:32

Download Torrent

Ratings:Not Yet Rated (Log in to rate it)


Tracker:
udp://tracker.openbittorrent.com:80/announce


File List: 


Comments

No comments still posted

Powered by 10 Hamsters v2-svn -|- Page Generated In 0.591857 secs.
-|- RSS FEED
Theme By: Nikkbu