[Login] or [Signup]
Login
Username:
Password:
[Signup]
[Recover Account]


Poll


You must be logged in to view polls



Torrent Details For "Deadpool 2 2018 720p English HDCAM-Rip x264 AAC 800MB[HDFilmBoss]"

Deadpool 2 2018 720p English HDCAM-Rip x264 AAC 800MB[HDFilmBoss]

Download this torrent | Magnet Download
Health:
Seeds: 0
Leechers: 0
Completed:
Last Checked: 17-05-2018 05:37:05
External Torrent
Update Stats
Download Magnet


Poster


iMDB
Imdb Picture Title: Deadpool 2
Year: 2018
Runtime: 119 minutes
Votes: 11154
Rating: 8.5/10
Language: English
Country: USA
All Genres: Action, Adventure, Comedy, Sci-Fi
Plot Outline: After surviving a near fatal bovine attack, a disfigured cafeteria chef (Wade Wilson) struggles to fulfill his dream of becoming Mayberry's hottest bartender while also learning to cope with his lost sense of taste. Searching to regain his spice for life, as well as a flux capacitor, Wade must battle ninjas, the Yakuza, and a pack of sexually aggressive canines, as he journeys around the world to discover the importance of family, friendship, and flavor - finding a new taste for adventure and earning the coveted coffee mug title of World's Best Lover. Written by Twentieth Century Fox


Tagline: Prepare for the second coming.
Director: David Leitch
Writing By: Rhett Reese,Paul Wernick,Ryan Reynolds,Rob Liefeld,Fabian Nicieza,
Produced By: Simon Kinberg,Stan Lee,Jonathon Komack Martin,Kelly McCormick,Rhett Reese,Ryan Reynolds,Lauren Shuler Donner,Ethan Smith,Aditya Sood,Paul Wernick,
Music: Tyler Bates
Cast:
Josh Brolin as Nathan Summers / Cable
Ryan Reynolds as Wade / Deadpool
Morena Baccarin as Vanessa
Zazie Beetz as Domino
Brianna Hildebrand as Negasonic Teenage Warhead
Brad Pitt as Vanisher
Bill SkarsgÄrd as Zeitgeist
T.J. Miller as Weasel
Terry Crews as Bedlam
Rob Delaney as Peter
Trailers:
The Final Trailer
Official Trailer
Deadpool, Meet Cable - Trailer
Official Teaser
Deadpool 2


Watch-Free-HD     Download

Details
Name:Deadpool 2 2018 720p English HDCAM-Rip x264 AAC 800MB[HDFilmBoss]
Description:
General
Complete name:Deadpool 2 (2018) 720p English HDCAM-Rip x264 AAC 800MB-HDFilmBoss.Com.mkv
File size                                : 807 MiB
Duration                                 : 1 h 49 min
Overall bit rate                         : 1 031 kb/s
Writing application                      : mkvmerge v7.1.0 ('Good Love') 32bit built on Jul 27 2014 12:59:18

Video
ID                                       : 1
Format                                   : AVC
Format settings, CABAC                   : Yes
Format settings, RefFrames               : 4 frames
Duration                                 : 1 h 49 min
Bit rate                                 : 938 kb/s
Width                                    : 1 280 pixels
Height                                   : 512 pixels
Color space                              : YUV
Bit depth                                : 8 bits
Stream size                              : 734 MiB (91%)
Title                                    : HDFilmBoss.Com
Writing library                          : x264 core 155 r2901 7d0ff22
Language                                 : English
Default                                  : Yes
Forced                                   : No

Audio
ID                                       : 2
Format                                   : MPEG Audio
Codec ID/Hint                            : MP3
Duration                                 : 1 h 49 min
Bit rate                                 : 90.2 kb/s
Nominal bit rate                         : 96.0 kb/s
Channel(s)                               : 2 channels
Sampling rate                            : 48.0 kHz
Stream size                              : 70.6 MiB (9%)
Title                                    : HDFilmBoss.Com
Writing library                          : LAME3.99r
Encoding settings                        : -m j -V 4 -q 3 -lowpass 15.1 --abr 96
Language                                 : English
Default                                  : Yes
Forced                                   : No

Visit Site> http://hdfilmboss.com/





Category:Movies > Pre-Releases
Lang:English  English
Total Size:806.65 MB
Info Hash:e34bfbf56a36f2f39b271c0fa543da7512e75b57
Added By:HDFilmBoss
Date Added:17-05-2018 05:11:11
Views:238
Hits:8

Download Torrent

Ratings:Not Yet Rated (Log in to rate it)


Tracker:
udp://tracker.trackerfix.com:80/announce


File List: 


Comments

No comments still posted

Powered by 10 Hamsters v2-svn -|- Page Generated In 0.596509 secs.
-|- RSS FEED
Theme By: Nikkbu