[Login] or [Signup]
Login
Username:
Password:
[Signup]
[Recover Account]


Poll


You must be logged in to view polls



Torrent Details For "The Return Of Raju (2017) DTHRip 720p Hindi H.264 AAC [EXCLUSIVE] - LatestHDMovies"

The Return Of Raju (2017) DTHRip 720p Hindi H.264 AAC [EXCLUSIVE] - LatestHDMovies

Download this torrent | Magnet Download
Health:
Seeds: 0
Leechers: 0
Completed:
Last Checked: 17-05-2018 05:34:57
External Torrent
Update Stats
Download Magnet


Poster


iMDB
Imdb Picture Title: Soggade Chinni Nayana
Year: 2016
Runtime: 145 minutes
Votes: 1035
Rating: 6.4/10
Language: Telugu
Country: India
All Genres: Comedy, Drama
Plot Outline: To keep her late husband's son and his wife from seeking a divorce, a widow enlists the help of her husband's spirit.


Director: Kalyan Krishna
Writing By: Kalyan Krishna,Ram Mohan P.,Ram Mohan P.,Satyanand,
Produced By: Nagarjuna Akkineni,D. Supriya,
Music: Anoop Rubens
Cast:
Nagarjuna Akkineni as Bangaraju / Dr. Ram Mohan
Ramya Krishnan as Satya
Lavanya Tripathi as Seeta
Anasuya Bharadwaj as Bujji
Brahmaji as
Brahmanandam as
Chalapathi Rao as
Jhansi as
Vennela Kishore as
Duvvasi Mohan as Chitraguptudu


Watch-Free-HD     Download

Details
Name:The Return Of Raju (2017) DTHRip 720p Hindi H.264 AAC [EXCLUSIVE] - LatestHDMovies
Description:




[[>>SAMPLE<<]]
 http://oload.stream/f/vqmdWHQ...es___TeamSHAHID-.mp4








General
Unique ID                   : 121817066302665710603821022138399062719 (0x5BA51D131E43CF04B72BD43B114DFABF)
Complete name               : C:\Users\SAJID COMPUTERS\Videos\The Return Of Raju (2017) DTHRip 720p Hindi H.264 AAC [EXCLUSIVE] - LatestHDMovies.mkv
Format                      : Matroska
Format version              : Version 4 / Version 2
File size                   : 1 019 MiB
Duration                    : 1 h 49 min
Overall bit rate            : 1 298 kb/s
Movie name                  : LatestHDMovies | TeamSHAHID
Encoded date                : UTC 2018-05-17 04:24:01
Writing application         : mkvmerge v23.0.0 ('The Bride Said No') 32-bit
Writing library             : libebml v1.3.6 + libmatroska v1.4.9
Cover                       : Yes
Attachments                 : Cover.jpg

Video
ID                          : 1
Format                      : AVC
Format/Info                 : Advanced Video Codec
Format profile              : [email protected]
Format settings             : 1 Ref Frames
Format settings, CABAC      : No
Format settings, ReFrames   : 1 frame
Codec ID                    : V_MPEG4/ISO/AVC
Duration                    : 1 h 49 min
Bit rate                    : 1 206 kb/s
Width                       : 1 280 pixels
Height                      : 720 pixels
Display aspect ratio        : 16:9
Frame rate mode             : Constant
Frame rate                  : 25.000 FPS
Color space                 : YUV
Chroma subsampling          : 4:2:0
Bit depth                   : 8 bits
Scan type                   : Progressive
Bits/(Pixel*Frame)          : 0.052
Stream size                 : 941 MiB (92%)
Title                       : LatestHDMovies | TeamSHAHID
Writing library             : x264 core 135
Encoding settings           : cabac=0 / ref=1 / deblock=1:0:0 / analyse=0x1:0x111 / me=dia / subme=7 / psy=1 / psy_rd=1.00:0.00 / mixed_ref=0 / me_range=4 / chroma_me=1 / trellis=0 / 8x8dct=0 / cqm=0 / deadzone=21,11 / fast_pskip=1 / chroma_qp_offset=-2 / threads=2 / lookahead_threads=1 / sliced_threads=0 / nr=0 / decimate=1 / interlaced=0 / bluray_compat=0 / constrained_intra=0 / bframes=0 / weightp=0 / keyint=12 / keyint_min=7 / scenecut=40 / intra_refresh=0 / rc_lookahead=12 / rc=abr / mbtree=1 / bitrate=1206 / ratetol=1.0 / qcomp=0.60 / qpmin=3 / qpmax=51 / qpstep=4 / ip_ratio=1.40 / aq=1:1.00
Language                    : Hindi
Default                     : Yes
Forced                      : No

Audio
ID                          : 2
Format                      : AAC
Format/Info                 : Advanced Audio Codec
Format profile              : LC
Codec ID                    : A_AAC-2
Duration                    : 1 h 49 min
Bit rate                    : 96.0 kb/s
Channel(s)                  : 2 channels
Channel positions           : Front: L R
Sampling rate               : 44.1 kHz
Frame rate                  : 43.066 FPS (1024 SPF)
Compression mode            : Lossy
Delay relative to video     : -36 ms
Stream size                 : 75.4 MiB (7%)
Title                       : LatestHDMovies | TeamSHAHID
Language                    : Hindi
Default                     : Yes
Forced                      : No



 
                           
Category:Movies > South Dub
Lang:Hindi
Total Size:1,018.78 MB
Info Hash:f3da3e710a58c5bf4452b114f8e3b99e45d83f3d
Added By:ShahidHasanzai
Date Added:17-05-2018 05:34:57
Views:1,299
Hits:104

Download Torrent

Ratings:Not Yet Rated (Log in to rate it)


Tracker:
udp://tracker.openbittorrent.com:80/announce


File List: 


Comments

No comments still posted

Powered by 10 Hamsters v2-svn -|- Page Generated In 1.211870 secs.
-|- RSS FEED
Theme By: Nikkbu