[Login] or [Signup]
Login
Username:
Password:
[Signup]
[Recover Account]


Poll


You must be logged in to view polls



Torrent Details For "Mayurakshi (2017) Bengali Movie - 2CD - HD Rip[x264 - AC3(5.1Ch)]"

Mayurakshi (2017) Bengali Movie - 2CD - HD Rip[x264 - AC3(5.1Ch)]

Download this torrent | Magnet Download
Health:
Seeds: 43
Leechers: 29
Completed: 31 
Last Checked: 17-05-2018 21:08:29
External Torrent
Update Stats
Download Magnet


Poster


iMDB
Imdb Picture Title: Mayurakshi
Year: 2017
Runtime: 102 minutes
Votes: 40
Rating: 7.2/10
Language: Bengali
Country: India
All Genres: Drama
Plot Outline: MAYURAKSHI narrates an intensely emotional tale of a 84 year old father Sushovan, a brilliant former professor of History, presently suffering from age related neurological problems including dementia and cognitive dysfunction. His middle-aged son Aryanil visits him, an intimately sensitive man going through an unsettling phase in his personal life. Though deeply attached to his father, Aryanil is settled in Chicago,USA, and as such cut off from the soul who shaped his life. Within a five-day span of reunion, lost chapters get curiously reopened and incidents long buried suddenly turn relevant. Few days become more eventful than years and through the process of confrontation with aging and destiny, Aryanil seeks hope and sustenance in his own life. Written by atanu ghosh


Director: Atanu Ghosh
Writing By: Atanu Ghosh,
Produced By: Prabal Halder,Firdausul Hasan,Mita Pal,
Music: Debajyoti Mishra
Cast:
Sudiptaa Chakraborty as Mallika
Prasenjit Chatterjee as Aryanil
Soumitra Chatterjee as Sushovan
Gargi Roy Chowdhury as Paromita
Indrani Haldar as Sahana


Watch-Free-HD     Download

Details
Name:Mayurakshi (2017) Bengali Movie - 2CD - HD Rip[x264 - AC3(5.1Ch)]
Description:
Mayurakshi (2017) Bengali Movie - 2CD -
HD Rip[x264 - AC3(5.1Ch)]






General
Format                                   : Matroska
Format version                           : Version 2
File size                                : 1.40 GiB
Duration                                 : 1 h 54 min

Video
ID                                       : 1
Format                                   : AVC
Format/Info                              : Advanced Video Codec
Format profile                           : [email protected]
Format settings                          : CABAC / 4 Ref Frames
Format settings, CABAC                   : Yes
Format settings, RefFrames               : 4 frames
Codec ID                                 : V_MPEG4/ISO/AVC
Duration                                 : 1 h 54 min
Bit rate                                 : 1 563 kb/s
Width                                    : 720 pixels
Height                                   : 304 pixels
Display aspect ratio                     : 2.35:1
Frame rate mode                          : Constant
Frame rate                               : 25.000 FPS
Color space                              : YUV
Chroma subsampling                       : 4:2:0
Bit depth                                : 8 bits
Scan type                                : Progressive
Bits/(Pixel*Frame)                       : 0.286
Stream size                              : 1.25 GiB (89%)

Audio
ID                                       : 2
Format                                   : AC-3
Format/Info                              : Audio Coding 3
Codec ID                                 : A_AC3
Duration                                 : 1 h 54 min
Bit rate mode                            : Constant
Bit rate                                 : 192 kb/s
Channel(s)                               : 6 channels
Channel positions                        : Front: L C R, Side: L R, LFE
Sampling rate                            : 48.0 kHz
Stream size                              : 157 MiB (11%)

Thumbnail




Category:Movies > Bengali
Lang:Bengali  Bengali
Total Size:1.40 GB
Info Hash:70459f2c9fef290164670140df2d2821f4a3a332
Added By:Pherarim
Date Added:17-05-2018 09:21:02
Views:221
Hits:25

Download Torrent

Ratings:Not Yet Rated (Log in to rate it)

  


Tracker:
udp://tracker.trackerfix.com:80/announce


File List: 


Comments

No comments still posted

Powered by 10 Hamsters v2-svn -|- Page Generated In 1.585196 secs.
-|- RSS FEED
Theme By: Nikkbu